<?xml version="1.0" standalone="no"?> <!DOCTYPE svg PUBLIC "-//W3C//DTD SVG 1.0//EN" "http://www.w3.org/TR/2001/REC-SVG-20010904/DTD/svg10.dtd" > <svg xmlns="http://www.w3.org/2000/svg" width="100%" height="100%">
<defs >
<font id="cmunti" horiz-adv-x="438" ><font-face
    font-family="CMU Serif"
    units-per-em="1000"
    panose-1="2 0 6 3 0 0 0 0 0 0"
    ascent="930"
    descent="-250"
    alphabetic="0" />
<missing-glyph horiz-adv-x="760" d="M10 10V765H750V10H10ZM70 112L346 388L70 663V112ZM105 70H655L380 346L105 70ZM105 705L380 429L655 705H105ZM414 388L690 112V663L414 388Z" />
<glyph unicode=" " glyph-name="space" horiz-adv-x="358" />
<glyph unicode="!" glyph-name="exclam" horiz-adv-x="307" d="M112 43Q112 68 132 87T176 106Q194 106 207 94T220 63Q220 40 201 20T156 0Q137 0 125 12T112 43ZM188 201Q188 208 189 211L264 652Q275 716 329 716Q347 716 360 705T373 676Q373 669 366 646L222
207Q215 187 202 187Q188 187 188 201Z" />
<glyph unicode="&quot;" glyph-name="quotedbl" horiz-adv-x="511" d="M254 352Q254 359 278 513T306 675Q318 703 350 705Q365 705 375 697T385 673Q385 660 377 640L278 353Q273 338 264 338Q254 338 254 352ZM409 354Q409 361 433 513T461 675Q473 703 503
705H504Q519 705 529 696T539 673Q539 667 531 640L433 353Q428 338 419 338Q409 338 409 354Z" />
<glyph unicode="#" glyph-name="numbersign" horiz-adv-x="818" d="M116 142T116 153T141 164H305L391 336H191Q165 336 165 347T188 358H403Q555 663 564 679Q572 692 578 692Q595 692 584 669L428 358H622Q773 663 782 679Q790 692 797 692Q813 692 802 669L647
358H801Q824 358 824 347T800 336H635L549 164H750Q776 164 776 153T752 142H537L388 -157Q370 -192 362 -192Q353 -192 353 -184Q353 -174 386 -110L512 142H319L170 -157Q152 -192 144 -192Q135 -192 135 -184Q135 -172 167 -110L294 142H139Q116 142 116 153ZM331
164H524L610 336H416L331 164Z" />
<glyph unicode="$" glyph-name="dollar" horiz-adv-x="511" d="M113 123Q113 222 169 222Q185 222 193 213T202 189Q202 171 189 157T151 143H145V127Q145 30 244 20L320 324Q199 352 199 468Q199 551 261 623T415 705Q424 742 431 747Q434 749 439 749Q453 749
453 737Q453 735 446 705Q503 700 537 668T571 578Q571 486 517 486Q501 486 492 495T483 519Q483 537 496 551T534 565H540Q540 582 538 594T528 626T497 658T439 674L370 398Q432 381 460 344Q488 306 488 248Q488 157 424 79T267 -11Q263 -29 261 -36T255 -49T243
-55Q230 -55 230 -41Q230 -34 236 -10Q176 -5 145 30T113 123ZM255 506Q255 428 337 408Q339 407 340 407L407 673Q339 661 297 611T255 506ZM276 21Q340 31 386 88T432 211Q432 242 422 263T394 296T369 309T349 315L276 21Z" />
<glyph unicode="%" glyph-name="percent" horiz-adv-x="817" d="M145 -36Q145 -29 156 -16L729 649V650Q666 621 607 621Q530 621 476 663Q479 649 479 624Q479 526 422 437T300 347Q258 347 232 383T205 480Q205 577 266 663T395 750Q432 750 455 718Q510 643
608 643Q663 643 716 668T802 732Q817 750 827 750Q835 750 840 744T846 730Q846 723 835 709L186 -43Q175 -56 165 -56Q157 -56 151 -50T145 -36ZM256 449Q256 369 302 369Q351 369 400 454T449 629Q449 669 436 698T395 728Q365 728 338 695T293 616T266 524T256
449ZM513 77Q513 173 573 260T704 347Q748 347 768 308T788 221Q788 127 732 36T608 -56Q565 -56 539 -19T513 77ZM564 46Q564 -34 610 -34Q641 -34 675 4T733 104T757 226Q757 270 743 297T704 325Q663 325 629 268T580 148T564 46Z" />
<glyph unicode="&amp;" glyph-name="ampersand" horiz-adv-x="766" d="M126 176Q126 213 148 272T219 383L222 389Q222 391 220 396Q211 424 211 456Q211 551 277 633T424 716Q474 716 502 683T530 601Q530 522 477 522Q459 522 451 532T442 554Q442 556 442 559T446
571T454 586T471 598T499 603Q498 652 476 673T424 694Q380 694 344 648T289 542T269 427Q320 461 367 461Q395 461 412 445T430 401Q430 366 401 338T334 310Q285 310 253 342Q235 309 219 253T202 156Q202 113 218 81T263 32T321 8T383 0Q457 0 516 24T609 85T665
165T694 245T702 308Q702 381 650 448Q572 400 547 375T521 310Q521 296 524 288Q536 320 569 320Q601 320 601 289Q601 270 588 256T553 242Q526 242 508 261T490 313T511 375T552 419T606 455T661 491T712 541T758 616Q724 618 724 647Q724 668 739 681T771 694Q784
694 794 686T804 663Q804 650 794 620T752 544T677 467Q734 392 734 311Q734 277 725 238T690 151T627 67T525 4T382 -22Q263 -22 195 36T126 176ZM276 379Q293 332 336 332Q363 332 381 355T400 406Q400 439 367 439Q322 439 276 379Z" />
<glyph unicode="&apos;" glyph-name="quotesingle" horiz-adv-x="307" d="M229 352Q229 355 231 367T233 383L274 641L275 648Q276 656 277 661T282 675T290 690T304 700T324 705H325Q340 705 350 697T360 673Q360 667 352 640L253 353Q248 338 240 338Q229 338 229 352Z" />
<glyph unicode="(" glyph-name="parenleft" horiz-adv-x="408" d="M152 47Q152 145 185 274T293 527Q332 591 383 646T466 725T506 750Q516 750 516 740Q516 737 501 722Q417 650 354 546T261 339T216 153T202 11Q202 -132 264 -226Q271 -236 271 -240Q271 -250
261 -250Q250 -250 224 -212T179 -125Q152 -50 152 47Z" />
<glyph unicode=")" glyph-name="parenright" horiz-adv-x="408" d="M18 -240Q18 -237 33 -222Q117 -150 180 -46T273 161T318 347T332 489Q332 632 270 726Q263 736 263 740Q263 750 273 750Q284 750 310 712T355 625Q382 550 382 453Q382 355 349 226T241 -27Q202
-91 151 -146T68 -225T28 -250Q18 -250 18 -240Z" />
<glyph unicode="*" glyph-name="asterisk" horiz-adv-x="511" d="M195 435Q195 454 219 465L369 535L256 604Q242 613 242 622Q242 634 252 644T274 654Q282 654 293 643L383 555L410 716Q415 750 443 750Q451 750 457 745T463 732L459 716L406 555L546 648Q555
654 563 654Q583 654 583 634T559 604L409 534L522 466Q537 457 537 447Q537 435 527 425T505 415Q496 415 485 426L395 514L368 353Q364 319 336 319Q315 319 315 337L319 353L373 514L232 421Q222 415 215 415Q195 415 195 435Z" />
<glyph unicode="+" glyph-name="plus" horiz-adv-x="766" d="M141 238T141 250T164 262Q167 262 171 262T176 261H437Q438 265 471 400T507 542Q511 554 519 554Q529 554 529 542L524 517L460 261H715Q716 261 720 261T727 262Q750 262 750 250Q750 242 743 241T715
239H454L389 -22Q381 -54 372 -54Q362 -54 362 -42Q362 -36 374 12T404 130T431 239H176Q175 239 170 239T163 238Q141 238 141 250Z" />
<glyph unicode="," glyph-name="comma" horiz-adv-x="306" d="M73 -183Q73 -179 86 -166Q178 -88 198 15Q179 0 157 0Q113 0 113 42Q113 66 131 86T178 106Q224 106 224 47Q224 -7 192 -66T127 -159T83 -193Q73 -193 73 -183Z" />
<glyph unicode="-" glyph-name="hyphen" horiz-adv-x="358" d="M86 201Q90 236 103 241Q107 243 116 243H315Q337 243 337 229Q337 227 336 220T332 203T323 190Q317 187 308 187H108Q86 187 86 201Z" />
<glyph unicode="." glyph-name="period" horiz-adv-x="307" d="M112 43Q112 66 131 86T176 106Q195 106 207 94T219 63Q219 40 200 20T155 0Q136 0 124 12T112 43Z" />
<glyph unicode="/" glyph-name="slash" horiz-adv-x="511" d="M18 -238Q18 -230 27 -217L570 700Q573 705 578 714T586 728T592 738T599 745T606 748Q616 748 616 737Q616 733 609 721L66 -196Q44 -234 39 -241T27 -248Q18 -248 18 -238Z" />
<glyph unicode="0" glyph-name="zero" horiz-adv-x="511" d="M117 148Q117 216 145 326T209 505Q252 587 307 626T421 666Q458 666 484 652T524 618T544 573T553 530T555 496Q555 436 531 335T476 164Q432 65 371 22T251 -22Q219 -22 195 -12T157 16T134 51T122
91T118 124T117 148ZM181 98Q181 45 203 23T256 0Q293 0 327 29T380 98Q412 169 452 331T493 550Q493 596 471 620T416 644Q385 644 351 621T291 547Q264 491 223 325T181 98Z" />
<glyph unicode="1" glyph-name="one" horiz-adv-x="511" d="M117 12Q117 25 123 28T145 31H153Q209 31 225 39T247 73L365 547Q310 506 254 506Q238 506 238 518Q238 534 254 537Q353 547 430 650Q443 666 449 666Q461 666 461 654Q461 650 458 641L315 70Q312
58 312 51Q312 41 317 38T340 33Q366 31 383 31H391Q401 31 405 31T413 28T417 19Q417 0 397 0Q375 0 330 1T263 3Q242 3 198 2T132 0Q117 0 117 12Z" />
<glyph unicode="2" glyph-name="two" horiz-adv-x="511" d="M84 -12Q84 -8 88 9T113 66T165 143Q185 167 209 188T248 218T294 246Q380 297 430 365T480 534Q480 591 454 617T392 644Q336 644 288 593T218 485T195 391Q195 358 217 358Q257 358 286 409T315 493Q315
510 305 530Q304 532 304 536Q304 547 315 547Q324 547 330 529T337 494Q337 471 324 436T282 369T216 336Q165 336 165 399Q165 420 174 452T203 521T249 590T314 644T395 666Q459 666 505 622T551 497Q551 450 536 413T485 342T411 283T306 219Q201 158 152 74Q158
77 174 77Q204 77 280 60Q328 48 363 48Q408 48 438 82T483 156Q486 168 488 170T500 173Q515 173 515 163Q515 156 506 129T479 67T428 5T354 -22Q315 -22 257 18Q203 55 172 55Q134 55 116 -9Q114 -17 111 -19T99 -22Q84 -22 84 -12Z" />
<glyph unicode="3" glyph-name="three" horiz-adv-x="511" d="M95 106Q95 184 148 184Q164 184 173 175T182 152Q182 136 168 119T126 104Q127 52 157 26T228 0Q298 0 347 59Q380 97 394 152T408 236Q408 319 331 319H303Q293 319 289 319T281 322T278 329Q278
339 281 343T289 349T304 350H327Q373 350 408 370T460 416T487 476T500 526T502 554Q502 603 477 623T417 644Q346 644 288 588T229 471Q229 434 255 434Q278 434 297 452T316 496Q316 517 308 525Q304 533 304 536Q304 547 315 547Q323 547 330 530T338 497Q338
461 312 437T255 412Q228 412 214 430T199 476Q199 543 266 604T419 666Q480 666 521 630T562 532Q562 472 519 414T400 330Q480 293 480 203Q480 114 402 46T228 -22Q167 -22 131 15T95 106Z" />
<glyph unicode="4" glyph-name="four" horiz-adv-x="511" d="M44 18Q44 28 58 38T83 54Q93 62 112 79T176 147T255 255Q348 406 403 616Q408 634 411 642T422 658T445 666Q472 666 472 640Q472 636 465 605T434 510T377 377T282 222T144 66Q157 67 171 67Q210
67 247 56Q257 53 261 51T308 33Q309 37 328 114T350 199Q360 242 390 242Q394 242 399 241T410 234T417 215Q417 210 413 195L369 17Q374 16 385 16Q417 16 445 27Q455 31 459 31Q465 31 469 25T474 14Q474 3 440 -6T381 -15Q367 -15 361 -14L324 -160Q315 -194
286 -194Q259 -194 259 -168Q259 -162 263 -147L300 2Q287 7 265 16T241 25Q206 36 168 36Q108 36 91 21Q64 1 59 1T49 7T44 18Z" />
<glyph unicode="5" glyph-name="five" horiz-adv-x="511" d="M107 117Q107 208 165 208Q182 208 191 199T201 174Q201 155 187 139T148 122Q141 122 138 123Q139 58 169 32T236 6Q270 6 308 30T376 109Q393 141 409 205T426 309Q426 398 365 398Q289 398 230 329Q220
319 214 319Q201 319 201 331Q201 338 203 344L279 648Q284 665 291 665Q295 665 305 660Q352 634 417 634Q483 634 546 662Q554 665 558 665Q567 665 567 656T542 625T468 580T369 558Q331 558 307 567Q297 570 294 570Q292 570 289 558L243 374Q302 420 367 420Q429
420 463 375T498 265Q498 153 416 66T236 -22Q175 -22 141 18T107 117Z" />
<glyph unicode="6" glyph-name="six" horiz-adv-x="511" d="M120 158Q120 229 145 328T227 507Q281 583 345 624T471 666Q516 666 542 645T568 587Q568 558 555 540T516 521Q498 521 490 530T482 553Q482 560 484 569T500 589T535 601Q524 641 470 641Q394 641
325 554Q268 481 232 339Q291 426 367 426Q407 426 436 409T479 366T500 316T507 270Q507 158 428 68T254 -22Q216 -22 189 -5T149 33T129 84T121 128T120 158ZM185 97Q185 65 201 36T256 6Q330 6 380 96Q395 126 415 204T435 317Q435 356 417 380Q400 404 364
404Q317 404 281 368T225 280T195 179T185 97Z" />
<glyph unicode="7" glyph-name="seven" horiz-adv-x="511" d="M144 432Q144 435 150 447L246 651Q251 662 254 664T265 666Q280 666 280 656Q280 653 257 603Q323 666 391 666Q410 666 421 656T434 634T440 598Q442 570 447 560T468 549Q519 549 583 643L598 663Q602
666 611 666Q625 666 625 656Q625 652 616 639Q539 521 490 415Q411 247 359 44Q354 23 350 11T333 -11T303 -22Q289 -22 279 -14T268 11Q268 17 275 46T310 149T378 304Q412 372 513 538Q491 527 468 527Q438 527 419 561Q405 583 399 589T378 596Q361 596 341
590T292 568T233 517T175 430Q170 422 159 422Q144 422 144 432Z" />
<glyph unicode="8" glyph-name="eight" horiz-adv-x="511" d="M97 115Q97 136 103 158T127 212T185 276T286 337Q240 378 234 386Q210 417 210 463Q210 539 274 602T420 666Q476 666 515 635T554 548T513 445T397 360Q459 306 465 299Q494 260 494 208Q494 121
420 50T252 -22Q186 -22 142 16T97 115ZM147 113Q147 65 177 36T255 6Q324 6 379 56T435 166Q435 187 427 204T412 229T387 252L305 321Q233 287 190 229T147 113ZM265 509Q265 471 293 448L369 384Q376 377 378 377Q381 377 394 384T426 408T464 443T496 492T509
550Q509 593 484 617T417 641Q359 641 312 600T265 509Z" />
<glyph unicode="9" glyph-name="nine" horiz-adv-x="511" d="M104 58Q104 86 117 104T156 123Q174 123 182 114T190 91Q190 85 188 77T174 56T139 42Q155 6 214 6Q282 6 345 84Q404 159 440 306Q383 219 305 219Q272 219 247 231T206 261T182 301T169 342T165
376Q165 487 245 576T423 666Q460 666 486 650T525 612T544 562T552 518T553 488Q553 454 547 406T512 274T439 126Q397 66 337 22T212 -22Q164 -22 134 -2T104 58ZM237 328Q237 241 308 241Q356 241 393 278T450 369T478 470T488 550Q488 588 472 614T421 641Q389
641 360 622T317 585T295 551Q275 516 256 438T237 328Z" />
<glyph unicode=":" glyph-name="colon" horiz-adv-x="306" d="M113 43Q113 67 133 86T178 106Q198 106 210 93T222 63Q222 40 202 20T157 0Q137 0 125 12T113 43ZM194 368Q194 392 214 411T259 431Q279 431 291 419T303 388Q303 364 283 345T238 325Q218 325 206
337T194 368Z" />
<glyph unicode=";" glyph-name="semicolon" horiz-adv-x="307" d="M194 368Q194 391 213 411T258 431Q277 431 289 419T301 388Q301 365 282 345T237 325Q218 325 206 337T194 368ZM73 -183Q73 -179 86 -166Q178 -88 198 15Q179 0 157 0Q113 0 113 42Q113 66 131
86T178 106Q224 106 224 47Q224 -7 192 -66T127 -159T83 -193Q73 -193 73 -183Z" />
<glyph unicode="&lt;" glyph-name="less" horiz-adv-x="766" d="M166 242T166 250T194 271L765 524Q776 529 780 529Q791 529 791 519Q791 510 771 502Q767 500 765 499L261 276Q254 273 242 268T220 258T201 249V248Q215 241 230 232L641 -3Q656 -13 656 -20Q656
-29 646 -29Q640 -29 627 -21L192 227Q166 242 166 250Z" />
<glyph unicode="=" glyph-name="equal" horiz-adv-x="766" d="M116 142T116 153T141 164H699Q715 164 719 162Q724 160 725 155T722 146T697 142H138Q116 142 116 153ZM165 347Q165 358 185 358H754Q773 358 773 347T748 336H214Q210 336 203 336T192 335H189Q165
335 165 347Z" />
<glyph unicode="&gt;" glyph-name="greater" horiz-adv-x="766" d="M99 -19Q99 -10 119 -2Q123 0 125 1L629 224Q636 227 648 232T670 242T689 251V252Q679 257 621 290L249 502Q234 511 234 520T244 529Q247 529 259 523L698 273Q724 258 724 250T696 229L138
-18Q113 -29 110 -29Q99 -29 99 -19Z" />
<glyph unicode="?" glyph-name="question" horiz-adv-x="511" d="M194 463Q194 477 203 505T233 570T281 639T348 694T431 716Q485 716 518 681T551 592Q551 558 541 529T510 476T477 439T441 409L363 346Q310 305 296 288T281 243Q281 209 306 209Q330 209 353
228T386 277Q389 287 391 289T403 292Q418 292 418 282Q418 258 385 223T306 187Q277 187 262 208T246 257Q246 286 260 312T284 348T315 375L436 470Q458 489 471 501T500 543T516 606Q516 648 492 671T431 694Q372 694 320 642T239 512Q277 512 277 480Q277 460
263 446T228 431Q194 431 194 463ZM215 43Q215 68 235 87T279 106Q300 106 312 93T324 63Q324 39 304 20T259 0Q240 0 228 12T215 43Z" />
<glyph unicode="@" glyph-name="at" horiz-adv-x="766" d="M151 248Q151 333 186 417T278 564T409 666T557 705Q656 705 722 635T789 445Q789 370 746 241Q705 128 628 128Q614 128 600 132T570 151T553 193Q485 128 417 128Q358 128 319 171T279 286Q279 392
355 479T522 566Q601 566 635 481H661Q671 481 674 481T681 478T684 471Q684 464 682 458L617 195Q614 177 614 175Q614 150 632 150Q663 150 689 189T729 281T751 380T759 448Q759 550 704 616T556 683Q468 683 381 622T238 458T182 246Q182 145 236 78T389 11Q516
11 647 71Q663 78 681 78Q692 78 696 78T703 75T706 68Q706 58 649 39T558 11Q471 -11 388 -11Q275 -11 213 64T151 248ZM340 270Q340 226 359 188T420 150Q466 150 514 193T570 268L610 430Q610 431 612 438L613 444Q613 452 609 466T596 498T568 530T522 544Q458
544 399 456T340 270Z" />
<glyph unicode="A" glyph-name="A" horiz-adv-x="743" d="M59 14Q59 27 70 30T97 33T140 53T190 113L517 689Q518 690 520 695T525 702T531 709T539 714T549 716Q553 716 556 716T561 713T564 709T566 704T567 699T568 693V688L611 67Q612 44 622 38T663 31Q690
31 690 17Q690 0 670 0Q665 0 634 1T567 3Q533 3 508 3T470 1T455 0Q440 0 440 14Q440 24 448 28T467 32T494 34T520 46Q528 53 528 73Q528 79 527 97T523 152T517 230H289Q280 214 270 196T253 166T239 142T227 122T219 106T212 92T208 82T205 73T204 65Q204 51
212 43T231 34T250 30T259 19Q259 0 239 0Q236 0 225 1T193 2T150 3Q131 3 108 2T81 0Q59 0 59 14ZM307 260H515L493 587L307 260Z" />
<glyph unicode="B" glyph-name="B" horiz-adv-x="703" d="M65 12Q65 25 71 28T92 31Q141 31 154 38T174 73L309 616Q313 630 313 635Q313 646 299 649T255 652Q244 652 240 652T232 655T228 664Q228 677 234 680T255 683H566Q644 683 689 644T734 547Q734 487
680 432T538 357Q597 350 637 314T677 219Q677 138 600 69T420 0H90Q80 0 76 0T69 3T65 12ZM243 45T243 41T244 35T252 32T274 31H398Q477 31 532 93T588 232Q588 247 585 261T574 297T543 331T489 344H317L247 63Q247 62 245 54ZM323 366H455Q536 366 591 425T646
553Q646 568 643 582T631 613T602 641T552 652H434Q408 652 400 647T385 616L323 366Z" />
<glyph unicode="C" glyph-name="C" horiz-adv-x="715" d="M150 245Q150 359 212 467T372 640T571 705Q669 705 722 620L785 694Q794 705 801 705Q812 705 812 695Q812 689 810 681L749 438Q746 426 743 423T731 420Q716 420 716 430Q716 431 717 441T719 465T721
491Q721 566 687 620T579 674Q519 674 455 639T342 536Q289 463 263 366T237 207Q237 108 287 59T409 9Q482 9 557 67T668 242Q671 250 684 250Q699 250 699 240Q699 219 678 178T621 92T524 12T395 -22Q289 -22 220 51T150 245Z" />
<glyph unicode="D" glyph-name="D" horiz-adv-x="755" d="M63 12Q63 25 69 28T90 31Q139 31 152 38T172 73L307 616Q311 630 311 635Q311 646 297 649T253 652Q242 652 238 652T230 655T226 664Q226 677 232 680T253 683H565Q661 683 718 615T775 438Q775 328
720 226T577 62T395 0H88Q78 0 74 0T67 3T63 12ZM244 45T244 41T245 35T253 32T275 31H378Q493 31 578 130Q634 196 663 304T692 476Q692 567 646 609T532 652H435Q409 652 401 647T386 616L248 63Q248 62 246 54Z" />
<glyph unicode="E" glyph-name="E" horiz-adv-x="678" d="M62 12Q62 25 68 28T89 31Q138 31 151 38T171 73L305 609Q309 624 309 632Q309 638 307 641T292 646T251 649Q239 649 235 649T227 653T224 662Q224 674 230 677T251 680H718Q728 680 731 680T739 677T743
669T742 654L719 477Q718 467 717 463T713 457T702 455Q687 455 687 467Q687 474 689 484Q694 524 694 548Q694 604 667 626T561 649H436Q410 649 402 644T388 615L327 369H408Q467 369 489 388T527 462Q533 484 538 485Q541 486 546 486Q562 486 562 474Q562 470
559 461L504 241Q501 228 498 225T486 221Q470 221 470 233Q470 235 471 239T472 244Q481 277 481 295Q481 318 467 328T406 338H319L250 63Q250 62 248 54T246 41T247 35T255 32T277 31H399Q446 31 481 40T539 62T583 103T617 159T651 234Q658 251 661 254T672
258Q687 258 687 247Q687 243 683 235L594 16Q589 5 585 3T566 0H87Q77 0 73 0T66 3T62 12Z" />
<glyph unicode="F" glyph-name="F" horiz-adv-x="652" d="M62 12Q62 25 68 28T89 31Q138 31 151 38T171 73L305 609Q309 624 309 632Q309 638 307 641T292 646T251 649Q239 649 235 649T227 653T224 662Q224 674 230 677T251 680H706Q716 680 719 680T727 677T731
669T730 654L707 477Q706 467 705 463T701 457T690 455Q675 455 675 467L676 483Q682 529 682 549Q682 604 656 626T553 649H436Q410 649 402 644T388 615L324 356H402Q461 356 483 375T519 452Q523 466 526 469T538 473Q553 473 553 462Q553 456 551 448L496 228Q492
214 489 211T477 208Q462 208 462 220Q462 224 465 234Q473 266 473 283Q473 305 459 315T399 325H316L253 73Q249 58 249 52Q249 44 251 41T270 34T322 31H332Q342 31 346 31T353 28T357 19Q357 0 336 0Q314 0 268 1T198 3Q178 3 137 2T76 0Q62 0 62 12Z" />
<glyph unicode="G" glyph-name="G" horiz-adv-x="773" d="M150 245Q150 359 212 467T372 640T571 705Q669 705 722 620L785 694Q794 705 801 705Q812 705 812 695Q812 689 810 681L749 438Q746 426 743 423T731 420Q716 420 716 430Q716 431 717 441T719 465T721
491Q721 566 687 620T579 674Q519 674 455 639T342 536Q288 462 263 366T237 208Q237 113 287 61T414 9Q494 9 550 60Q572 80 579 98T604 188Q612 216 612 222Q612 229 609 232T601 237T583 240Q557 242 540 242H532Q506 242 506 253Q506 273 527 273T592 272T658
270Q674 270 707 271T755 273Q768 273 768 260Q768 248 762 245T744 242Q723 242 712 238T699 229T692 209L644 18Q639 1 632 1Q624 1 611 21T590 61Q565 29 512 4T396 -22Q288 -22 219 51T150 245Z" />
<glyph unicode="H" glyph-name="H" horiz-adv-x="743" d="M62 12Q62 25 68 28T89 31Q138 31 151 38T171 73L306 616Q310 630 310 635Q310 646 296 649T252 652Q241 652 237 652T229 655T225 664Q225 683 244 683T303 682T364 680T423 681T482 683Q496 683 496
670Q496 658 490 655T466 652Q420 652 407 645T387 612L327 371H601L662 616Q666 630 666 635Q666 646 652 649T608 652Q597 652 593 652T585 655T581 664Q581 683 600 683T659 682T720 680T779 681T838 683Q852 683 852 670Q852 658 846 655T822 652Q776 652 763
645T743 612L608 71Q604 56 604 48Q604 42 606 39T621 34T662 31Q674 31 678 31T686 27T689 18Q689 0 670 0T611 1T550 3T491 2T432 0Q418 0 418 12Q418 25 424 28T445 31Q494 31 507 38T527 73L593 340H319L252 68Q248 54 248 48T250 39T265 34T306 31Q318 31
322 31T330 27T333 18Q333 0 314 0T255 1T194 3T135 2T76 0Q62 0 62 12Z" />
<glyph unicode="I" glyph-name="I" horiz-adv-x="385" d="M57 13Q57 25 63 28T87 31Q136 31 150 38T171 72L307 616Q310 625 310 635Q310 646 295 649T247 652Q235 652 231 652T223 656T220 665Q220 683 239 683Q260 683 302 682T364 680Q385 680 426 681T487
683Q501 683 501 671Q501 658 495 655T470 652Q421 652 407 645T387 611L252 71Q248 56 248 49T250 39T266 34T310 31Q322 31 326 31T334 28T338 19Q338 0 318 0T257 1T194 3T132 2T71 0Q57 0 57 13Z" />
<glyph unicode="J" glyph-name="J" horiz-adv-x="525" d="M94 86Q94 108 100 123T115 146T133 158T148 162T156 163Q173 163 185 153T197 124Q197 103 181 84T137 65Q128 65 126 66Q132 36 155 18T210 0Q250 0 288 43T341 145L457 611Q461 625 461 631Q461 641
456 644T431 650Q413 652 385 652H373Q363 652 359 652T352 655T348 664Q348 683 369 683Q391 683 436 682T505 680Q522 680 557 681T608 683Q622 683 622 671Q622 658 616 655T596 652Q564 652 553 645T537 616L420 144Q403 75 343 27T212 -22Q162 -22 128 7T94
86Z" />
<glyph unicode="K" glyph-name="K" horiz-adv-x="768" d="M62 12Q62 25 68 28T89 31Q138 31 151 38T171 73L306 616Q310 630 310 635Q310 646 296 649T252 652Q241 652 237 652T229 655T225 664Q225 683 244 683T303 682T364 680T423 681T482 683Q496 683 496
670Q496 658 490 655T466 652Q420 652 407 645T387 612L308 293L660 586Q693 613 693 632Q693 650 667 652Q653 652 653 664Q653 683 672 683Q689 683 725 682T779 680Q791 680 814 681T848 683Q859 683 859 671Q859 654 841 652Q776 646 684 570L500 417L631 70Q640
47 652 40T691 31Q709 31 709 19Q709 0 692 0Q678 0 647 1T601 3Q582 3 545 2T489 0Q475 0 475 13Q475 31 494 31Q545 31 545 64Q545 69 539 84L435 363L296 248L261 104Q248 57 248 48Q248 42 250 39T265 34T306 31Q318 31 322 31T330 27T333 18Q333 0 314 0T255
1T194 3T135 2T76 0Q62 0 62 12Z" />
<glyph unicode="L" glyph-name="L" horiz-adv-x="627" d="M62 12Q62 25 68 28T89 31Q138 31 151 38T171 73L306 616Q310 630 310 635Q310 646 296 649T252 652Q241 652 237 652T229 655T225 664Q225 683 244 683Q264 683 305 682T367 680Q390 680 436 681T505
683Q520 683 520 671Q520 658 514 655T492 652H482Q424 652 409 644T386 607L250 63Q250 62 248 54T246 41T247 35T255 32T277 31H358Q403 31 439 45T497 76T539 126T567 179T589 236Q595 251 597 254T609 258Q624 258 624 246L622 240Q620 234 620 233L544 18Q539
5 535 3T515 0H87Q77 0 73 0T66 3T62 12Z" />
<glyph unicode="M" glyph-name="M" horiz-adv-x="896" d="M66 12Q66 31 85 31Q124 33 148 47T182 101L310 616Q314 630 314 635Q314 646 300 649T256 652Q245 652 241 652T233 655T229 664Q229 677 235 680T256 683H389Q408 683 412 680T417 661L473 100L813 665Q821
678 826 680T849 683H977Q987 683 991 683T999 679T1002 670Q1002 658 996 655T972 652Q926 652 913 645T893 612L758 71Q754 56 754 48Q754 42 756 39T771 34T812 31Q824 31 828 31T836 27T839 18Q839 0 820 0Q802 0 763 1T704 3T647 2T590 0Q576 0 576 12Q576
25 582 28T603 31Q652 31 665 38T685 73L826 639H825L452 18Q442 0 428 0Q421 0 418 3T413 9T411 24L350 630H349L216 99Q212 83 212 74Q212 66 213 61T220 48T238 37T271 31Q290 31 290 18Q290 0 272 0Q257 0 224 1T174 3T126 2T79 0Q66 0 66 12Z" />
<glyph unicode="N" glyph-name="N" horiz-adv-x="743" d="M62 12Q62 31 81 31Q161 34 178 101L310 631Q313 641 313 644Q313 652 252 652Q241 652 237 652T229 655T225 664Q225 677 231 680T252 683H377Q393 683 396 681T405 666L592 146L702 585Q706 601 706
609Q706 650 646 652Q628 652 628 664Q628 683 646 683Q661 683 694 682T743 680T791 681T839 683Q852 683 852 670Q852 652 837 652Q752 649 736 584L596 20Q592 7 589 4T576 0Q566 0 563 2T556 17L341 614L212 99Q208 83 208 74Q208 66 209 61T216 48T234 37T267
31Q286 31 286 18Q286 0 268 0Q253 0 220 1T170 3T122 2T75 0Q62 0 62 12Z" />
<glyph unicode="O" glyph-name="O" horiz-adv-x="766" d="M148 236Q148 349 207 458T363 636T560 705Q658 705 723 635T788 444Q788 327 728 218T572 44T378 -22Q276 -22 212 50T148 236ZM238 205Q238 115 277 60T385 4Q443 4 505 48T614 174Q653 241 678 330T703
486Q703 581 660 630T553 680Q489 680 426 633T322 513Q276 433 257 346T238 205Z" />
<glyph unicode="P" glyph-name="P" horiz-adv-x="678" d="M63 12Q63 25 69 28T90 31Q139 31 152 38T172 73L307 616Q311 630 311 635Q311 646 297 649T253 652Q242 652 238 652T230 655T226 664Q226 677 232 680T253 683H553Q633 683 681 641T730 535Q730 449
648 383T469 316H314L253 68Q249 54 249 48T251 39T266 34T307 31Q319 31 323 31T331 27T334 18Q334 0 315 0T256 1T195 3T136 2T77 0Q63 0 63 12ZM318 342H444Q537 342 589 400Q614 429 628 483T642 562Q642 608 610 630T521 652H435Q408 652 400 647T386 616L318
342Z" />
<glyph unicode="Q" glyph-name="Q" horiz-adv-x="766" d="M148 236Q148 349 207 458T363 636T560 705Q658 705 723 635T788 444Q788 309 707 185T502 6Q503 -57 518 -78T562 -100Q593 -100 624 -76T672 -2Q676 11 684 11Q695 11 695 -1Q695 -4 690 -22T673 -69T644
-126T599 -174T538 -194Q459 -194 459 -102Q459 -72 469 -7Q424 -22 378 -22Q276 -22 212 50T148 236ZM233 202Q233 141 255 90T327 15Q322 28 322 43Q322 81 350 114T419 148Q492 148 499 42Q555 78 598 140T662 267T694 387T704 480Q704 570 663 625T553 680Q497
680 438 641T333 532Q283 455 258 360T233 202ZM344 43Q344 3 385 3Q427 3 473 26Q474 34 474 54T473 86T458 112T420 126Q389 126 367 99T344 43Z" />
<glyph unicode="R" glyph-name="R" horiz-adv-x="729" d="M63 12Q63 25 69 28T90 31Q139 31 152 38T172 73L307 616Q311 630 311 635Q311 646 297 649T253 652Q242 652 238 652T230 655T226 664Q226 677 232 680T253 683H517Q608 683 663 640T718 535Q718 476
664 421T508 339Q547 325 570 295T594 223Q594 196 586 135Q580 83 580 59Q580 40 582 29T591 9T613 0Q637 0 657 23T691 88Q693 95 694 98T698 103T708 105Q723 105 723 92Q723 83 713 59T675 6T609 -22Q557 -22 521 5T485 84Q485 100 500 164Q517 232 517 243Q517
292 490 311T423 331H315L250 68Q246 54 246 48T248 39T263 34T304 31Q316 31 320 31T328 27T331 18Q331 0 312 0Q292 0 252 1T193 3T135 2T77 0Q63 0 63 12ZM321 353H422Q516 353 570 405Q594 429 608 468T625 527T628 558Q628 585 617 604T591 632T550 646T509
651T466 652Q415 652 408 650Q393 646 386 616L321 353Z" />
<glyph unicode="S" glyph-name="S" horiz-adv-x="562" d="M74 -12Q74 -10 77 1L129 210Q132 221 135 224T147 227Q162 227 162 216Q162 215 162 213T161 210Q153 181 153 149Q153 77 196 43T303 9Q368 9 419 69T470 200Q470 244 448 272Q436 285 424 290T371 308L322
322Q286 332 279 335Q199 372 199 467Q199 555 270 630T431 705T561 637L606 693Q616 705 621 705Q632 705 632 695Q632 689 630 681L578 474Q575 462 572 459T560 456Q545 456 545 466L546 480Q551 508 551 535Q551 598 523 637T429 677Q366 677 317 623T267 506Q267
440 318 418Q329 414 373 402Q448 380 467 371T505 340Q538 299 538 238Q538 141 466 60T301 -22Q195 -22 148 47Q121 11 101 -10Q91 -22 85 -22Q74 -22 74 -12Z" />
<glyph unicode="T" glyph-name="T" horiz-adv-x="715" d="M175 463Q175 467 180 480L239 659Q243 672 247 674T268 677H781Q791 677 795 677T802 674T806 665Q806 656 805 652L775 473Q773 459 770 456T757 452Q742 452 742 465Q742 469 744 480Q754 539 754 570Q754
617 730 631T627 646Q583 646 575 644Q559 642 552 611L418 73Q414 59 414 54Q414 43 420 39T447 33Q448 33 457 33T478 32T497 31H512Q537 31 537 20Q537 0 516 0Q491 0 438 1T359 3Q334 3 282 2T204 0Q187 0 187 12Q187 25 193 28T215 31H231Q294 31 312 39T337
76L471 613Q475 625 475 635Q475 639 474 641T468 644T452 646H418Q321 646 285 618T214 484Q204 458 201 455T190 452Q175 452 175 463Z" />
<glyph unicode="U" glyph-name="U" horiz-adv-x="743" d="M202 166Q202 198 210 230L306 616Q310 630 310 635Q310 646 296 649T252 652Q241 652 237 652T229 655T225 664Q225 683 244 683T303 682T364 680T423 681T482 683Q496 683 496 670Q496 658 490 655T466
652Q420 652 407 645T387 612L287 210Q277 166 277 134Q277 71 308 40T384 9Q456 9 524 71T616 229L705 585Q709 601 709 609Q709 650 649 652Q631 652 631 664Q631 683 649 683Q664 683 696 682T745 680T792 681T839 683Q852 683 852 670Q852 652 837 652Q752
649 736 584L645 218Q623 129 547 54T380 -22Q306 -22 254 29T202 166Z" />
<glyph unicode="V" glyph-name="V" horiz-adv-x="743" d="M209 664Q209 683 227 683Q243 683 277 682T329 680Q348 680 387 681T444 683Q458 683 458 671Q458 658 452 655T433 652Q370 652 370 621L421 97L710 580Q725 606 725 620Q725 650 685 652Q669 654 669
664Q669 683 687 683Q701 683 732 682T779 680Q792 680 817 681T855 683Q868 683 868 672Q868 665 867 661T861 655T856 653T849 652Q816 649 790 633T737 571L394 -3Q386 -16 381 -19T366 -22Q355 -22 352 -18T347 2L287 618Q286 633 283 638T269 648T233 652Q209
652 209 664Z" />
<glyph unicode="W" glyph-name="W" horiz-adv-x="998" d="M208 664Q208 683 226 683Q241 683 274 682T324 680Q342 680 380 681T437 683Q451 683 451 671Q451 658 445 655T426 652Q402 652 388 648T368 636T362 622T361 605L383 116L616 544Q622 554 622 564Q622
615 618 631Q616 643 608 647T570 652Q549 652 549 664Q549 683 567 683Q582 683 615 682T665 680Q684 680 722 681T778 683Q792 683 792 672Q792 663 788 658T781 653T772 652Q728 651 715 641T701 615Q701 609 702 608L724 116L977 582Q988 602 988 614Q988 649
937 652Q921 652 921 664Q921 683 940 683Q956 683 989 682T1039 680Q1051 680 1076 681T1112 683Q1124 683 1124 672Q1124 653 1110 652Q1073 649 1051 633T1004 570L691 -4Q681 -22 665 -22Q653 -22 651 -18T647 3L625 501L350 -2Q343 -14 339 -18T324 -22T310
-18T306 3L278 620Q277 634 276 639T264 648T232 652Q208 652 208 664Z" />
<glyph unicode="X" glyph-name="X" horiz-adv-x="743" d="M51 12Q51 30 63 31Q88 33 104 35T152 55T211 104L419 341L316 620Q311 633 307 638T290 648T250 652Q226 652 226 664Q226 683 245 683Q261 683 295 682T347 680Q367 680 406 681T464 683Q478 683 478
670Q478 652 462 652Q445 651 431 645T411 633T405 623Q405 622 407 617T409 611L482 412L630 582Q651 606 651 622Q651 647 615 652Q603 652 603 664Q603 683 621 683Q637 683 672 682T725 680Q740 680 769 681T812 683Q825 683 825 671T820 656T804 652Q769 650
739 636T697 610T667 580L655 570L492 383L611 61Q615 49 619 44T636 35T676 31Q686 31 690 31T697 27T700 18Q700 0 682 0Q666 0 631 1T579 3Q560 3 521 2T463 0Q448 0 448 12Q448 29 464 31Q489 32 505 42T521 61L518 73L430 312L238 93L237 91Q235 87 233 85Q225
74 225 61Q225 34 260 31Q273 31 273 20Q273 0 254 0Q238 0 203 1T151 3Q136 3 107 2T63 0Q51 0 51 12Z" />
<glyph unicode="Y" glyph-name="Y" horiz-adv-x="743" d="M202 664Q202 683 221 683Q237 683 272 682T325 680Q345 680 384 681T442 683Q456 683 456 671Q456 658 451 655T434 652Q378 652 378 628Q378 625 382 615L477 315L696 582L699 586Q702 590 705 595T712
606T718 618T721 629Q721 650 690 652Q675 652 675 664Q675 683 693 683Q708 683 739 682T786 680Q799 680 824 681T862 683T874 672Q874 659 870 656T855 652Q818 649 787 631T722 570L486 283Q480 276 474 256Q468 232 458 190T443 133Q424 54 424 48Q424 37
438 34T482 31Q493 31 497 31T505 28T509 19Q509 0 490 0T431 1T371 3Q352 3 313 2T255 0Q241 0 241 12Q241 25 247 28T266 31Q321 32 332 40T354 90Q400 265 400 273Q400 278 396 288L290 622Q285 640 273 646T226 652Q202 652 202 664Z" />
<glyph unicode="Z" glyph-name="Z" horiz-adv-x="613" d="M80 9Q80 21 91 34L608 652H468Q411 652 371 639T306 597T268 543T241 476Q239 469 238 467T235 462T231 459T223 458Q208 458 208 469Q208 476 211 482L265 663Q270 677 274 680T294 683H681Q689 683
692 683T698 682T703 679T704 674Q704 662 692 648L177 34H324Q375 34 413 45T474 73T517 120T545 175T569 242Q575 260 578 263T589 267Q605 267 605 255Q605 249 600 239L532 18Q528 5 524 3T503 0H103Q80 0 80 9Z" />
<glyph unicode="[" glyph-name="bracketleft" horiz-adv-x="307" d="M63 -236Q63 -231 65 -223L298 709Q306 743 312 747Q317 750 329 750H421Q443 750 443 739Q443 727 420 727H365L127 -227H174Q198 -227 198 -238Q198 -250 177 -250H85Q63 -250 63 -236Z" />
<glyph unicode="\" glyph-name="backslash" horiz-adv-x="511" d="M262 722V732Q262 748 272 748Q283 748 285 723L373 -223V-233Q373 -248 363 -248Q352 -248 350 -223L262 722Z" />
<glyph unicode="]" glyph-name="bracketright" horiz-adv-x="307" d="M-11 -239Q-11 -227 12 -227H67L305 727H256Q233 727 233 738Q233 750 255 750H347Q369 750 369 736Q369 732 367 724L133 -210Q125 -243 120 -247Q115 -250 103 -250H10Q-11 -250 -11 -239Z" />
<glyph unicode="^" glyph-name="asciicircum" horiz-adv-x="613" d="M248 476Q248 485 269 499Q308 526 362 563Q453 626 460 626H461Q466 626 475 618T521 570Q560 529 589 498Q603 481 603 477Q603 472 598 467T587 461H586Q580 461 567 472T453 575H452L281
469Q268 461 262 461T252 466T248 476Z" />
<glyph unicode="_" glyph-name="underscore" horiz-adv-x="766" d="M50 -233T50 -213T79 -193H580Q609 -193 609 -213T581 -233H79Q50 -233 50 -213Z" />
<glyph unicode="`" glyph-name="grave" horiz-adv-x="511" d="M274 614Q274 629 287 640T312 651Q319 651 325 648T334 641T342 631T347 623Q359 607 370 591T388 566T401 548T411 535T416 526T420 519T421 515Q421 508 416 504T404 499H403Q397 499 335 550Q308
572 290 587Q274 603 274 614Z" />
<glyph unicode="a" glyph-name="a" horiz-adv-x="511" d="M108 144Q108 253 181 347T337 442Q394 442 420 383Q428 422 460 422Q487 422 487 396Q487 389 483 375L415 103Q408 75 408 52Q408 11 434 11Q471 11 501 130Q505 146 508 149T520 153Q535 153 535 143Q535
141 532 126T521 86T505 45Q478 -11 432 -11Q403 -11 380 6T349 59Q292 -11 229 -11Q174 -11 141 33T108 144ZM176 100Q176 67 188 39T231 11Q268 11 308 52T356 124L403 313Q406 322 406 326Q406 361 387 390T337 420Q307 420 276 388T225 309Q210 274 193 205T176
100Z" />
<glyph unicode="b" glyph-name="b" horiz-adv-x="460" d="M115 141Q115 190 126 223L225 618Q225 618 226 626Q228 633 228 635Q228 641 226 644T213 649T178 652Q154 652 154 663Q154 672 157 676T165 682T177 684L276 692Q282 694 292 694Q306 694 306 682Q306
678 303 669L233 389Q289 442 339 442Q388 442 423 402T459 286Q459 176 387 83T230 -11Q177 -11 146 32T115 141ZM172 107Q172 56 189 34T230 11Q263 11 292 43T336 106Q357 152 374 225T392 331T380 392T337 420Q286 420 232 346Q218 327 210 300Q172 151 172
107Z" />
<glyph unicode="c" glyph-name="c" horiz-adv-x="460" d="M110 154Q110 263 189 352T363 442Q410 442 440 418T470 356Q470 329 455 313T419 296Q403 296 394 305T385 328Q385 330 385 333T388 344T395 358T410 369T435 377Q419 420 364 420Q329 420 294 394T233
320Q214 284 197 219T180 114Q180 68 200 40T259 11Q276 11 297 14T362 42T439 109Q448 120 452 120Q458 120 463 114T468 104Q468 94 444 68T367 16T257 -11Q191 -11 151 34T110 154Z" />
<glyph unicode="d" glyph-name="d" horiz-adv-x="511" d="M108 144Q108 253 181 347T337 442Q393 442 421 384L479 618L480 626Q482 633 482 635Q482 641 480 644T467 649T432 652Q408 652 408 663Q408 672 411 676T419 682T431 684L530 692Q536 694 546 694Q560
694 560 682Q560 678 557 669L414 98Q408 74 408 52Q408 11 434 11Q471 11 501 130Q505 146 508 149T520 153Q535 153 535 143Q535 141 532 126T521 86T505 45Q478 -11 432 -11Q403 -11 380 6T349 59Q292 -11 229 -11Q174 -11 141 33T108 144ZM176 100Q176 67 188
39T231 11Q268 11 308 52T355 122L403 314Q406 323 406 327Q406 359 386 391Q367 420 337 420T276 388T225 309Q210 274 193 205T176 100Z" />
<glyph unicode="e" glyph-name="e" horiz-adv-x="460" d="M114 164Q114 287 194 364T362 442Q408 442 435 418T463 357Q463 352 463 347T458 327T447 301T423 276T384 253Q328 231 239 231H200Q183 165 183 121Q183 96 188 74T211 32T259 11Q276 11 297 14T362
42T439 109Q448 120 452 120Q458 120 463 114T468 104Q468 94 444 68T367 16T257 -11Q189 -11 152 40T114 164ZM206 253H227Q242 253 254 253T292 256T339 266T380 284T413 314T425 359Q425 385 408 402T362 420Q355 420 346 419T316 408T276 383T238 333T206 253Z"
/>
<glyph unicode="f" glyph-name="f" horiz-adv-x="306" d="M-25 -139Q-25 -114 -10 -99T25 -84Q38 -84 48 -92T59 -116Q59 -133 48 -147T15 -165Q28 -183 55 -183Q92 -183 112 -97Q124 -54 140 27L213 400H151Q126 400 126 411Q126 425 132 428T153 431H219L240
541Q274 705 370 705Q403 705 427 688T452 639Q452 614 437 599T402 584Q389 584 379 592T368 616Q368 633 379 647T412 665Q397 683 370 683Q353 683 341 666T325 635T315 593Q303 539 283 431H361Q371 431 375 431T383 427T386 418Q386 406 380 403T359 400H277L207
41Q201 12 194 -15T168 -93T121 -174T55 -205Q24 -205 0 -188T-25 -139Z" />
<glyph unicode="g" glyph-name="g" horiz-adv-x="460" d="M53 -147Q53 -121 69 -108T102 -94Q120 -94 128 -104T137 -126Q137 -139 128 -152T105 -172Q132 -183 176 -183Q231 -183 271 -136Q291 -112 299 -92T317 -31L338 53Q285 0 232 0Q177 0 144 44T110 153Q110
259 181 350T337 442Q393 442 421 385Q424 404 436 413T460 422Q487 422 487 396Q487 390 483 375L374 -63Q359 -123 305 -164T174 -205Q53 -205 53 -147ZM178 109Q178 100 179 90T185 63T202 34T234 22Q271 22 311 62T358 132L403 314L406 328Q406 334 404 346T395
376T373 407T337 420Q309 420 279 392T229 321Q213 284 196 214T178 109Z" />
<glyph unicode="h" glyph-name="h" horiz-adv-x="511" d="M75 15Q75 24 77 28L225 618Q225 618 226 626Q228 633 228 635Q228 641 226 644T213 649T178 652Q154 652 154 663Q154 672 157 676T165 682T177 684L276 692Q282 694 292 694Q306 694 306 682Q306 678
303 669L230 377Q252 398 264 408T304 430T363 442Q407 442 437 418T467 338Q467 277 406 115Q388 61 388 40Q388 11 410 11Q466 11 503 136Q506 148 508 150T520 153Q535 153 535 143Q535 140 531 125T517 87T493 42T457 5T408 -11Q373 -11 353 12T332 69Q332
91 348 133Q406 299 406 354Q406 420 360 420Q286 420 227 325Q208 291 199 255Q196 244 191 223T183 190Q181 181 171 139T151 60T140 17Q137 7 127 -2T103 -11Q90 -11 83 -3T75 15Z" />
<glyph unicode="i" glyph-name="i" horiz-adv-x="306" d="M83 288Q83 291 87 306T101 344T125 389T162 426T211 442Q242 442 264 422T286 362Q286 341 274 306L210 135Q184 61 184 39Q184 11 206 11Q265 11 299 136Q302 148 304 150T316 153Q331 153 331 143Q331
140 327 126T313 88T290 42T253 5T204 -11Q167 -11 148 13T128 69Q128 89 146 138Q170 204 183 237L213 320Q231 369 231 392Q231 420 209 420Q150 420 116 294Q113 283 110 281T98 278Q83 278 83 288ZM244 608Q244 628 259 642T292 656Q305 656 315 648T326 623Q326
603 311 589T278 575Q265 575 255 583T244 608Z" />
<glyph unicode="j" glyph-name="j" horiz-adv-x="306" d="M-35 -147Q-35 -121 -19 -108T14 -94Q32 -94 40 -104T49 -126Q49 -131 47 -138T36 -157T11 -174Q29 -183 45 -183Q87 -183 117 -142T159 -52L254 329Q261 357 261 380Q261 420 234 420Q167 420 117 295Q114
286 112 283T108 279T98 278Q83 278 83 288Q83 291 89 306T108 345T138 389T181 426T235 442Q275 442 298 416T321 352Q321 334 316 319L223 -55Q207 -118 156 -161T46 -205Q12 -205 -11 -190T-35 -147ZM274 608Q274 626 289 641T323 656Q335 656 346 649T357 622Q357
604 342 590T308 575Q292 575 283 585T274 608Z" />
<glyph unicode="k" glyph-name="k" horiz-adv-x="460" d="M75 15Q75 24 77 28L225 618Q225 618 226 626Q228 633 228 635Q228 641 226 644T213 649T178 652Q154 652 154 663Q154 672 157 676T165 682T177 684L276 692Q282 694 292 694Q306 694 306 682Q306 678
303 669L201 261Q227 273 246 291T309 360Q379 442 439 442Q470 442 486 424T502 382Q502 356 487 341T452 326Q434 326 426 336T417 358Q417 365 419 373T433 393T464 408Q452 420 437 420Q413 420 388 404T347 371T296 315Q254 267 225 249Q358 230 358 145Q358
131 353 110Q345 70 345 54Q345 11 374 11Q390 11 402 21T424 52T438 89T450 130Q454 146 457 149T469 153Q484 153 484 143Q484 140 480 124T467 83T448 41Q418 -11 371 -11Q338 -11 313 13T287 86Q287 103 291 120Q294 134 294 145Q294 172 276 191T237 218T193
229L142 26Q134 -11 103 -11Q90 -11 83 -3T75 15Z" />
<glyph unicode="l" glyph-name="l" horiz-adv-x="255" d="M94 79Q94 94 100 118L225 618Q225 618 226 626Q228 633 228 635Q228 641 226 644T213 649T178 652Q154 652 154 663Q154 672 157 676T165 682T177 684L276 692Q282 694 292 694Q306 694 306 682Q306 678
303 669L160 98Q154 74 154 52Q154 11 180 11Q217 11 244 123L251 148Q254 153 265 153Q280 153 280 143Q280 141 276 124T265 82T249 41Q222 -11 178 -11Q142 -11 118 14T94 79Z" />
<glyph unicode="m" glyph-name="m" horiz-adv-x="817" d="M83 288Q83 290 87 305T99 346T115 389Q143 442 187 442Q220 442 243 421T271 363Q329 442 414 442Q454 442 484 422T519 354Q579 442 669 442Q712 442 743 419T774 338Q774 277 713 115Q695 61 695 40Q695
11 717 11Q773 11 810 136Q813 148 815 150T827 153Q842 153 842 143Q842 140 838 125T824 87T800 42T764 5T715 -11Q680 -11 660 12T639 69Q639 91 655 133Q713 299 713 354Q713 420 667 420Q589 420 526 312Q515 293 501 240Q498 229 493 208T485 175L445 15Q435
-11 409 -11Q395 -11 388 -3T381 15Q381 20 384 29L449 289Q458 330 458 354Q458 420 412 420Q334 420 271 312Q260 293 246 240Q244 229 238 208T230 175L190 15Q180 -11 154 -11Q140 -11 133 -3T126 15Q126 20 129 29L204 329Q211 357 211 380Q211 420 185 420Q163
420 148 390T117 301Q113 285 111 282T98 278Q83 278 83 288Z" />
<glyph unicode="n" glyph-name="n" horiz-adv-x="562" d="M83 288Q83 290 87 305T99 346T115 389Q143 442 187 442Q220 442 243 421T271 363Q281 378 295 393T343 425T414 442Q458 442 488 418T518 338Q518 277 457 115Q439 61 439 40Q439 11 461 11Q517 11 554
136Q557 148 559 150T571 153Q586 153 586 143Q586 140 582 125T568 87T544 42T508 5T459 -11Q424 -11 404 12T383 69Q383 91 399 133Q457 299 457 354Q457 420 411 420Q334 420 276 321Q259 293 246 240Q244 229 238 208T230 175L190 15Q180 -11 154 -11Q140 -11
133 -3T126 15Q126 20 129 29L204 329Q211 357 211 380Q211 420 185 420Q163 420 148 390T117 301Q113 285 111 282T98 278Q83 278 83 288Z" />
<glyph unicode="o" glyph-name="o" horiz-adv-x="511" d="M110 154Q110 263 189 352T363 442Q428 442 468 396T509 278Q509 169 430 79T256 -11Q192 -11 151 33T110 154ZM180 114Q180 63 202 37T256 11Q292 11 327 39T385 111Q407 153 423 217T439 317Q439 362
419 391T362 420Q331 420 298 397T238 329Q215 290 198 222T180 114Z" />
<glyph unicode="p" glyph-name="p" horiz-adv-x="511" d="M14 -182Q14 -163 35 -163Q65 -162 74 -157T90 -128L204 330Q211 358 211 380Q211 420 185 420Q163 420 148 390T117 301Q113 285 111 282T98 278Q83 278 83 288Q83 290 87 305T99 346T115 389Q143 442
187 442Q212 442 236 427T269 372Q329 442 390 442Q439 442 474 402T510 286Q510 175 438 82T282 -11Q248 -11 227 8T198 47L162 -99Q151 -143 151 -147Q151 -153 153 -156T166 -161T202 -163T226 -175Q226 -194 207 -194Q192 -194 159 -193T110 -191Q96 -191 68
-192T26 -194Q14 -194 14 -182ZM213 104Q213 94 217 76T238 34T281 11Q314 11 343 43T387 106Q408 152 425 225T443 331T431 392T388 420Q350 420 310 379T263 307L216 118Q213 106 213 104Z" />
<glyph unicode="q" glyph-name="q" horiz-adv-x="460" d="M108 144Q108 253 181 347T337 442Q397 442 423 378Q435 399 456 420T486 441Q497 441 497 430Q497 426 494 417L357 -129L356 -136Q354 -143 354 -147Q354 -153 356 -156T369 -161T405 -163T429 -175Q429
-194 410 -194Q394 -194 360 -193T309 -191T259 -192T209 -194Q196 -194 196 -182Q196 -169 202 -166T220 -163Q267 -162 277 -155T296 -115L335 42Q280 -11 229 -11Q174 -11 141 33T108 144ZM176 100Q176 67 188 39T231 11Q268 11 308 52T355 122L403 314Q406
323 406 327Q406 359 386 391Q367 420 337 420T276 388T225 309Q210 274 193 205T176 100Z" />
<glyph unicode="r" glyph-name="r" horiz-adv-x="421" d="M83 288Q83 290 87 305T99 346T115 389Q143 442 187 442Q215 442 238 425T270 370Q322 442 391 442Q426 442 457 428T489 379Q489 353 473 340T440 326Q422 326 414 336T405 358Q405 363 407 370T418 389T443
406Q423 420 390 420Q366 420 344 406T307 375T280 335T264 303T258 288L193 26Q184 -11 154 -11Q140 -11 133 -3T126 15Q126 20 129 29L204 329Q211 357 211 380Q211 420 185 420Q163 420 148 390T117 301Q113 285 111 282T98 278Q83 278 83 288Z" />
<glyph unicode="s" glyph-name="s" horiz-adv-x="408" d="M76 86Q76 117 91 132T127 148Q143 148 152 139T161 116Q161 110 160 103T146 82T110 67Q128 11 206 11Q235 11 259 19T296 41T319 70T332 99T336 123Q336 142 329 155T307 177T281 188T247 197Q234 200
226 202T203 211T178 228T162 255T154 294Q154 344 194 393T312 442Q360 442 389 418T419 357Q419 328 406 315T376 302T353 310T346 330T355 354T386 371Q372 420 311 420Q259 420 235 388T210 328Q210 308 221 296T244 279T274 271Q291 267 302 264T333 252T363
232T384 202T393 157Q393 141 388 122T370 78T336 35T282 2T205 -11Q150 -11 113 15T76 86Z" />
<glyph unicode="t" glyph-name="t" horiz-adv-x="332" d="M91 412Q91 425 97 428T119 431H204L243 590Q253 626 282 626Q309 626 309 600Q309 593 305 579L268 431H348Q358 431 362 431T369 428T373 419Q373 406 367 403T345 400H260L186 103Q179 75 179 52Q179
11 206 11Q244 11 273 49T321 134Q327 148 329 150T341 153Q356 153 356 143Q356 140 350 125T331 87T301 42T258 5T204 -11Q166 -11 143 15T119 79Q119 93 124 113L196 400H116Q106 400 102 400T95 403T91 412Z" />
<glyph unicode="u" glyph-name="u" horiz-adv-x="536" d="M83 288Q83 291 87 306T101 344T125 389T162 426T211 442Q244 442 265 420T287 361Q287 341 274 307Q216 149 216 88Q216 11 270 11Q323 11 362 69Q370 81 376 102L449 394Q458 431 488 431Q502 431 509
423T516 405Q516 400 513 391L441 103Q434 75 434 52Q434 11 460 11Q497 11 527 130Q531 146 534 149T546 153Q561 153 561 143Q561 141 558 126T547 86T531 45Q504 -11 458 -11Q398 -11 378 49Q330 -11 267 -11Q220 -11 188 17T155 105Q155 161 207 301Q231 368
231 391Q231 420 209 420Q149 420 116 294Q113 283 110 281T98 278Q83 278 83 288Z" />
<glyph unicode="v" glyph-name="v" horiz-adv-x="460" d="M83 288Q83 291 87 306T101 344T125 389T162 426T211 442Q244 442 265 420T287 361Q287 346 276 311Q217 154 217 94Q217 62 231 37T282 11Q322 11 355 50T407 141T434 234T444 290Q444 340 417 369Q404
384 404 396Q404 413 419 427T452 442Q473 442 483 424T493 376Q493 364 487 326T466 229T428 118T366 27T279 -11Q228 -11 192 17T156 109Q156 161 207 301Q231 368 231 391Q231 420 209 420Q149 420 116 294Q113 283 110 281T98 278Q83 278 83 288Z" />
<glyph unicode="w" glyph-name="w" horiz-adv-x="664" d="M83 288Q83 291 87 306T101 344T125 389T162 426T211 442Q244 442 265 420T287 361Q287 341 275 308Q218 157 218 98Q218 88 219 78T226 51T248 22T288 11Q322 11 347 49T372 105Q372 136 380 168L437
396Q446 431 475 431Q489 431 496 423T503 405Q503 398 487 339L445 171Q433 123 433 94Q433 58 448 35T499 11Q560 11 599 104Q614 140 631 201T648 290Q648 340 621 369Q608 384 608 396Q608 413 623 427T656 442Q677 442 687 424T697 376Q697 336 674 244T628
101Q581 -11 496 -11Q453 -11 424 6T382 53Q344 -11 285 -11T191 20Q157 51 157 112Q157 165 207 301Q231 368 231 391Q231 420 209 420Q149 420 116 294Q113 283 110 281T98 278Q83 278 83 288Z" />
<glyph unicode="x" glyph-name="x" horiz-adv-x="463" d="M53 51Q53 75 68 90T103 105Q137 105 137 73Q137 59 128 45T98 25Q115 11 142 11Q163 11 179 23T207 60T225 104T239 156Q251 205 262 247Q283 333 283 357Q283 387 270 403T235 420Q202 420 169 388T116
295Q112 283 110 281T98 278Q83 278 83 288T93 322T122 373T171 421T237 442Q308 442 333 374Q345 397 370 419T431 442Q461 442 489 428T518 379Q518 353 502 340T469 326Q451 326 443 336T434 358Q434 363 435 369T446 389T474 406Q458 420 430 420Q371 420 342
313Q319 216 308 176Q289 95 289 75Q289 40 303 26T336 11Q370 11 403 43T455 136Q459 148 461 150T473 153Q488 153 488 143Q488 134 478 111T450 59T401 10T334 -11Q307 -11 280 4T239 57Q200 -11 141 -11Q105 -11 79 6T53 51Z" />
<glyph unicode="y" glyph-name="y" horiz-adv-x="485" d="M83 288Q83 291 87 306T101 344T125 389T162 426T211 442Q244 442 265 420T287 361Q287 341 274 307Q216 149 216 88Q216 11 270 11Q310 11 339 41T376 100L449 394Q458 431 488 431Q502 431 509 423T516
405Q516 403 515 399T513 391L415 -3Q395 -82 332 -143T195 -205Q153 -205 126 -182T99 -119Q99 -94 110 -79T131 -60T150 -57Q164 -57 174 -65T184 -89T173 -119T141 -137Q133 -138 133 -140Q133 -144 138 -153T158 -173T195 -183Q241 -183 286 -135T357 26Q320
-11 267 -11Q220 -11 188 17T155 105Q155 161 207 301Q231 368 231 391Q231 420 209 420Q149 420 116 294Q113 283 110 281T98 278Q83 278 83 288Z" />
<glyph unicode="z" glyph-name="z" horiz-adv-x="408" d="M62 -1Q62 8 95 54T166 138L330 301Q340 311 370 345Q344 345 311 360Q271 378 251 378Q225 378 205 364T177 331Q173 322 171 320T159 317Q144 317 144 328Q144 353 178 397T261 442Q293 442 322 403Q348
367 369 367Q383 367 395 378T431 429Q436 438 438 440T450 442Q464 442 464 432Q464 427 450 405T410 349T357 289L212 146Q191 125 156 85Q161 86 174 86Q197 86 236 69Q272 53 292 53Q325 53 356 76T401 137Q404 147 406 150T418 153Q433 153 433 143Q433 127
417 93T363 24T282 -11Q268 -11 256 -5T237 8T220 28Q205 49 196 56T172 64Q159 64 147 58T123 38T107 19T93 -2Q88 -11 77 -11Q62 -11 62 -1Z" />
<glyph unicode="{" glyph-name="braceleft" horiz-adv-x="511" d="M155 249Q155 256 159 258T178 263T201 267Q236 276 267 302T312 363Q318 380 374 604Q374 605 375 611T378 620T381 629T385 640T390 651T397 662T406 674T417 686T430 698T447 710Q509 750 586
750Q603 750 603 739Q603 732 596 730T572 725T540 717Q524 711 510 703T487 687T469 668T457 650T448 633T443 618T440 606L438 600Q378 362 374 352Q344 280 238 249Q322 220 322 152Q322 132 289 2T255 -145Q255 -161 260 -174T273 -196T292 -211T313 -221T332
-226T346 -228L352 -229Q358 -232 358 -238Q358 -250 339 -250T298 -245T250 -229T208 -196T191 -143Q191 -124 224 6T258 154Q258 188 237 209T182 237Q180 237 174 238T165 239T158 242T155 249Z" />
<glyph unicode="|" glyph-name="bar" horiz-adv-x="307" d="M76 -228Q76 -228 79 -210L312 720Q319 749 335 749Q342 749 348 743T354 728Q354 723 314 564L119 -218Q110 -249 95 -249Q76 -249 76 -228Z" />
<glyph unicode="}" glyph-name="braceright" horiz-adv-x="511" d="M32 -239Q32 -231 38 -229T61 -225T94 -217Q107 -212 118 -206T138 -194T154 -179T167 -165T177 -150T184 -137T190 -124T194 -114T196 -105L197 -100Q257 139 261 148Q290 218 397 251Q363 262
338 285T313 349Q313 369 346 497T380 644Q380 660 375 673T362 695T343 710T322 720T303 726T289 728L283 729Q270 736 279 745Q284 750 295 750Q315 750 338 745T386 729T427 695T444 642Q444 622 411 493T377 346Q377 311 399 290T453 263Q455 263 459 263T467
261T473 259T478 256T480 250Q480 243 475 241T455 237T433 233Q396 223 366 198T323 138Q315 116 286 -6T247 -146Q222 -197 164 -223T49 -250Q32 -250 32 -239Z" />
<glyph unicode="~" glyph-name="asciitilde" horiz-adv-x="613" d="M248 577Q248 591 298 629T390 668Q424 668 470 635T542 602Q566 602 590 615T634 646T656 664Q662 667 667 665T672 656T661 639Q588 566 530 566Q496 566 450 599T376 632Q351 632 325 616T281
585T257 569Q248 569 248 577Z" />
</font>
</defs>
</svg>
